Buscador de películas clásicas
Comando en el Mar de China ( 1970 ) DescargaCineClasico.Net
¡Comparte!



Comando en el Mar de China ( 1970 )

Sinopsis:
Cover, dvd, caratula: Comando en el Mar de China | 1970 | Too Late the Hero
Comando en el Mar de China | 1970 | Too Late the Hero

Ficha de la película
DURACIÓN: 133 Min.
PAÍS: Estados Unidos
DIRECTOR: Robert Aldrich
GUIÓN: Lukas Heller, Robert Aldrich, Robert Sherman (Historia: Robert Aldrich & Robert Sherman)
MÚSICA: Gerald Fried
FOTOGRAFÍA: Joseph Biroc
REPARTO: Michael Caine, Cliff Robertson, Henry Fonda, Ian Bannen, Harry Andrews, Denholm Elliott, Ken Takakura, Sam Kydd, Patrick Jordan
PRODUCTORA: ABC Pictures / Palomar
GÉNERO:  II Guerra Mundial, Cine clásico bélico

Sinopsis
Segunda Guerra Mundial (1939-1945). En la primavera de 1942, japoneses y aliados ocupan una isla del Pacífico. Un grupo de soldados ingleses son enviados a una misión casi suicida detrás de las líneas enemigas, pero las cosas no salen según lo previsto. (FILMAFFINITY)

Imagenes / Capturas

Imagenes: Comando en el Mar de China | 1970 | Too Late the Hero

IDIOMA: Dual Castellano / Inglés con subtítulos en español

MEDIAINFO DEL ARCHIVO:

Comando.En.El.Mar.De.China (1970).(Dual-Esp-Ing+Subs-Esp).DvdRip.DX50.Mp3.by.Odinko.(CineClasicoConecta2).mkv
Format : Matroska
Format version : Version 4 / Version 2
File size : 1.47 GiB
Duration : 2h 8mn
Overall bit rate : 1 644 Kbps
Movie name : Comando en el mar de China ( 1965 ) – MKV creado por Odinko de Cine
Clásico Conecta2
Encoded date : UTC 2013-08-07 23:33:31
Writing application : mkvmerge v6.3.0 (‘You can’t stop me!’) built on Jun 28 2013 20:09:41
Writing library : libebml v1.3.0 + libmatroska v1.4.0

Video
ID : 2
Format : MPEG-4 Visual
Format settings, BVOP : Yes
Format settings, QPel : No
Format settings, GMC : No warppoints
Format settings, Matrix : Default (H.263)
Codec ID : V_MS/VFW/FOURCC / DX50
Codec ID/Hint : DivX 5
Duration : 2h 8mn
Bit rate : 1 356 Kbps
Width : 608 pixels
Height : 336 pixels
Display aspect ratio : 16:9
Frame rate mode : Constant
Frame rate : 25.000 fps
Color space : YUV
Chroma subsampling : 4:2:0
Bit depth : 8 bits
Scan type : Progressive
Compression mode : Lossy
Bits/(Pixel*Frame) : 0.265
Stream size : 1.22 GiB (82%)
Title : Cine Clásico Conecta2
Writing library : DivX 5.1.1 (Maupiti) (UTC 2003-11-19)
Default : Yes
Forced : No

Audio #1
ID : 3
Format : MPEG Audio
Format version : Version 1
Format profile : Layer 3
Mode : Joint stereo
Mode extension : MS Stereo
Codec ID : A_MPEG/L3
Codec ID/Hint : MP3
Duration : 2h 8mn
Bit rate mode : Constant
Bit rate : 128 Kbps
Channel(s) : 2 channels
Sampling rate : 48.0 KHz
Compression mode : Lossy
Stream size : 118 MiB (8%)
Language : Spanish
Default : Yes
Forced : No

Audio #2
ID : 4
Format : MPEG Audio
Format version : Version 1
Format profile : Layer 3
Mode : Joint stereo
Mode extension : MS Stereo
Codec ID : A_MPEG/L3
Codec ID/Hint : MP3
Duration : 2h 8mn
Bit rate mode : Constant
Bit rate : 128 Kbps
Channel(s) : 2 channels
Sampling rate : 48.0 KHz
Compression mode : Lossy
Stream size : 118 MiB (8%)
Language : English
Default : No
Forced : No

Text
ID : 1
Format : UTF-8
Codec ID : S_TEXT/UTF8
Codec ID/Info : UTF-8 Plain Text
Language : Spanish
Default : Yes
Forced : No

Menu
00:00:00.000 : en:Chapter 1
00:10:00.000 : en:Chapter 2
00:20:00.000 : en:Chapter 3
00:30:00.000 : en:Chapter 4
00:40:00.000 : en:Chapter 5
00:50:00.000 : en:Chapter 6
01:00:00.000 : en:Chapter 7
01:05:00.000 : en:Chapter 8
01:10:00.000 : en:Chapter 9
01:15:00.000 : en:Chapter 10
01:20:00.000 : en:Chapter 20

Sigue el enlace para descargar

Descargar Comando en el Mar de China 1970

Cine Clásico Conecta2
Comparte esta película en las redes sociales.
  •  
  •  
  •  
  •  
  •  
  •  
  •  
  •  
  •  
  •  

Género: Bélico
Director:
Año:
Reparto:
Idioma:
Subtítulos:
País:

Trailer / Video

Descargar Comando en el Mar de China ( 1970 )

AudioOpcionesFormatoCalidadServidorColaborador


Ver Online Comando en el Mar de China ( 1970 )

AudioOpcionesInformaciónCalidadServidorColaborador

DEJA TU COMENTARIO:

You must be logged in to post a comment.

Otras búsquedas

Descargar Comando en el Mar de China ( 1970 ), ver online Comando en el Mar de China ( 1970 ), Subtítulos de Comando en el Mar de China ( 1970 ), Torrent Comando en el Mar de China ( 1970 ), Pelicula Comando en el Mar de China ( 1970 ), Película clásica Comando en el Mar de China ( 1970 ), Sinopsis Comando en el Mar de China ( 1970 ), Comando en el Mar de China ( 1970 ) gratis,
  • Hazte premium en UPLOADED

    Consigue una cuenta clickando la imagen de abajo y aumentarás la velocidad de descarga a todo lo que de tu conexión, entre otras muchas ventajas, como descargas ilimitadas simultáneas. uploaded.to Al comprar tu cuenta desde nuestro enlace, estarás ayudando a la web a pagar los costes de alojamiento, entre otros. ¡COLABORA!